<?xml version="1.0" standalone="no"?>
<!DOCTYPE svg PUBLIC "-//W3C//DTD SVG 1.1//EN" "http://www.w3.org/Graphics/SVG/1.1/DTD/svg11.dtd" >
<svg xmlns="http://www.w3.org/2000/svg">
<metadata>Generated by IcoMoon</metadata>
<defs>
<font id="w8" horiz-adv-x="1024">
<font-face units-per-em="1024" ascent="960" descent="-64" />
<missing-glyph horiz-adv-x="1024" />
<glyph unicode="&#x20;" horiz-adv-x="512" d="" />
<glyph unicode="&#xe900;" glyph-name="youtube" d="M968.145 751.668c-15.902 15.901-35.691 27.359-57.395 33.233-79.462 21.672-399.279 21.672-399.279 21.672s-319.833-0.656-399.296-22.328c-21.706-5.875-41.495-17.333-57.394-33.235s-27.357-35.691-33.23-57.397c-24.036-141.192-33.36-356.337 0.66-491.881 5.873-21.705 17.331-41.493 33.231-57.395 15.9-15.898 35.688-27.358 57.393-33.233 79.464-21.67 399.289-21.67 399.289-21.67s319.817 0 399.279 21.67c21.705 5.875 41.493 17.331 57.395 33.233s27.358 35.691 33.233 57.395c25.353 141.393 33.165 356.401-0.657 492.537v0.004c-5.871 21.706-17.331 41.494-33.229 57.395zM674.999 448.004l-265.312-153.673v307.345l265.312-153.673z" />
<glyph unicode="&#xe901;" glyph-name="close" horiz-adv-x="964" d="M197.531 244.899c-22.434-22.432-22.434-58.808 0-81.239 22.434-22.438 58.807-22.438 81.241 0l203.107 203.107 203.111-203.119c22.438-22.432 58.808-22.432 81.245 0 22.432 22.438 22.432 58.808 0 81.245l-203.116 203.116 203.098 203.1c22.432 22.435 22.432 58.808 0 81.242s-58.808 22.434-81.239 0l-203.099-203.101-203.090 203.093c-22.434 22.434-58.807 22.434-81.241 0s-22.434-58.808 0-81.242l203.089-203.092-203.106-203.11z" />
<glyph unicode="&#xe902;" glyph-name="plus" horiz-adv-x="1067" d="M501.227 709.449c-11.686 0.093-21.239-9.458-21.333-21.333l-1.399-175.331c-0.094-11.874-9.647-21.427-21.333-21.333l-172.553 1.378c-11.687 0.094-21.239-9.459-21.333-21.333l-0.341-42.748c-0.095-11.878 9.303-21.581 20.99-21.67l172.555-1.378c11.686-0.094 21.082-9.796 20.988-21.67l-1.399-175.334c-0.094-11.874 9.306-21.577 20.992-21.67l42.069-0.333c11.686-0.094 21.239 9.455 21.333 21.333l1.399 175.33c0.094 11.874 9.647 21.427 21.333 21.333l172.557-1.378c11.686-0.094 21.235 9.459 21.333 21.333l0.337 42.748c0.098 11.874-9.301 21.577-20.988 21.67l-172.553 1.378c-11.691 0.094-21.086 9.796-20.992 21.67l1.399 175.331c0.094 11.875-9.301 21.578-20.988 21.671l-42.074 0.336z" />
<glyph unicode="&#xe903;" glyph-name="contact" d="M633.519 293.837c-3.038 33.041-1.839 56.081-1.839 86.242 14.959 7.838 41.758 57.839 46.238 100.079 11.763 0.96 30.323 12.399 35.763 57.68 2.88 24.32-8.721 38-15.842 42.32 19.119 57.52 58.88 235.52-73.438 253.92-13.683 23.92-48.563 36-93.841 36-181.361-3.36-203.2-136.96-163.441-289.92-7.12-4.32-18.72-18-15.84-42.32 5.52-45.281 24-56.72 35.76-57.68 4.48-42.24 32.32-92.241 47.358-100.079 0-30.161 1.122-53.201-1.92-86.242-35.838-96.478-277.918-69.359-289.118-255.437h778.24c-11.2 186.078-252.241 158.959-288.081 255.437z" />
<glyph unicode="&#xe904;" glyph-name="commentary" d="M85.333 864h682.667c23.565 0 42.667-19.103 42.667-42.667v-298.667h128c23.565 0 42.667-19.102 42.667-42.667v-341.333c0-23.565-19.102-42.667-42.667-42.667h-88.994l-51.503-51.503c-16.661-16.661-43.678-16.661-60.339 0l-51.503 51.503h-216.994c-23.565 0-42.667 19.102-42.667 42.667v128h-46.327l-72.836-72.836c-16.663-16.661-43.677-16.661-60.34 0l-72.836 72.836h-88.994c-23.564 0-42.667 19.102-42.667 42.667v512c0 23.564 19.103 42.667 42.667 42.667zM810.667 437.333v-128c0-23.565-19.102-42.667-42.667-42.667h-256v-85.333h192c11.315 0 22.17-4.497 30.17-12.497l33.83-33.83 33.83 33.83c8 8 18.854 12.497 30.17 12.497h64v256h-85.333zM256 693.333c-23.564 0-42.667-19.103-42.667-42.667s19.103-42.667 42.667-42.667h256c23.565 0 42.667 19.103 42.667 42.667s-19.102 42.667-42.667 42.667h-256zM256 522.667c-23.564 0-42.667-19.102-42.667-42.667s19.103-42.667 42.667-42.667h128c23.564 0 42.667 19.102 42.667 42.667s-19.103 42.667-42.667 42.667h-128z" />
<glyph unicode="&#xe905;" glyph-name="budget" d="M512 913.088c-256.864 0-465.088-208.224-465.088-465.088 0-256.862 208.224-465.088 465.088-465.088 256.862 0 465.088 208.226 465.088 465.088 0 256.864-208.226 465.088-465.088 465.088zM552.158 195.84v-65.502h-62.656v64.768c-102.814 14.080-147.838 98.56-147.838 98.56l64 53.534c0 0 40.864-71.134 114.784-71.134 40.832 0 71.808 21.854 71.808 59.2 0 87.296-235.2 76.702-235.2 238.654 0 70.4 55.68 121.12 132.416 133.12v65.44h62.656v-65.44c53.504-7.040 116.864-35.2 116.864-95.776v-46.464h-83.072v22.528c0 23.232-29.602 38.72-62.72 38.72-42.24 0-73.186-21.12-73.186-50.688 0-89.408 235.2-67.584 235.2-237.278 0-69.76-52.096-130.24-133.056-142.242z" />
<glyph unicode="&#xe906;" glyph-name="checked" d="M274.672 420.587c-11.696 9.596-26.937 14.805-42.665 14.575-15.728-0.226-30.78-5.871-42.137-15.799s-18.179-23.411-19.097-37.734c-0.918-14.327 4.136-28.442 14.147-39.509l138.367-132.489c5.793-5.547 12.754-9.967 20.466-12.992 7.711-3.029 16.014-4.608 24.41-4.638 8.351-0.043 16.627 1.442 24.336 4.373s14.694 7.245 20.54 12.685l422.583 398.038c5.726 5.376 10.24 11.729 13.278 18.697s4.544 14.413 4.429 21.911c-0.119 7.498-1.852 14.901-5.103 21.788s-7.957 13.122-13.854 18.349c-5.892 5.227-12.855 9.344-20.493 12.116s-15.799 4.144-24.017 4.038c-8.218-0.106-16.333-1.687-23.881-4.654s-14.383-7.261-20.113-12.637l-377.082-355.959-94.115 89.843z" />
<glyph unicode="&#xe907;" glyph-name="directions" d="M107.372 903.111c-10.050-0.012-19.868-2.937-28.2-8.4s-14.8-13.218-18.577-22.273c-3.777-9.054-4.692-18.999-2.628-28.561s7.013-18.31 14.215-25.125l277.973-270.256c4.657-4.716 10.235-8.481 16.408-11.075s12.815-3.964 19.539-4.031c6.724-0.067 13.394 1.172 19.62 3.643s11.881 6.125 16.636 10.748c4.755 4.623 8.513 10.121 11.055 16.174s3.816 12.537 3.747 19.075c-0.069 6.537-1.478 12.996-4.146 18.996s-6.54 11.424-11.391 15.952l-277.973 270.256c-4.716 4.713-10.357 8.458-16.588 11.013s-12.926 3.869-19.689 3.863zM739.675 902.631c-6.702 0.092-13.346-1.11-19.564-3.538-6.212-2.428-11.873-6.033-16.64-10.605s-8.556-10.020-11.145-16.027c-2.583-6.007-3.914-12.454-3.914-18.966s1.331-12.959 3.914-18.966c2.588-6.007 6.377-11.456 11.145-16.027s10.428-8.177 16.64-10.605c6.218-2.428 12.863-3.631 19.564-3.538h54.881l-281.082-273.231c-33.15-32.23-51.775-75.998-51.775-121.596v-366.806c-0.094-6.508 1.143-12.971 3.64-19.018 2.497-6.042 6.205-11.537 10.907-16.179 4.702-4.636 10.306-8.317 16.485-10.832s12.81-3.806 19.508-3.806c6.698 0 13.329 1.291 19.508 3.806s11.782 6.195 16.485 10.832c4.702 4.642 8.41 10.138 10.908 16.179 2.497 6.047 3.735 12.51 3.64 19.018v366.806c0 19.559 8.003 38.252 22.208 52.065l281.037 273.279v-53.36c-0.097-6.512 1.143-12.976 3.641-19.019s6.201-11.542 10.906-16.179c4.705-4.638 10.308-8.319 16.486-10.833s12.811-3.808 19.507-3.808c6.696 0 13.329 1.294 19.507 3.808s11.782 6.195 16.486 10.833c4.705 4.637 8.408 10.136 10.906 16.179s3.738 12.507 3.641 19.019v171.981c0 13.032-5.325 25.529-14.802 34.744s-22.335 14.392-35.738 14.393h-176.89z" />
<glyph unicode="&#xe908;" glyph-name="location" d="M512.004 919.042c-146.801 0-266.241-119.44-266.241-266.24 0-195.040 239.758-511.119 249.921-524.482l16.32-21.197 16.32 21.197c10.159 13.363 249.92 329.442 249.92 524.482 0 146.8-119.441 266.24-266.24 266.24zM512.004 734.722c45.278 0 81.92-36.64 81.92-81.92s-36.642-81.92-81.92-81.92c-45.282 0-81.92 36.64-81.92 81.92s36.638 81.92 81.92 81.92zM149.443 304.64l-117.12-327.68h959.361l-117.12 327.68h-156.723c-8-14.080-16-27.759-24-40.96h151.923l87.68-245.76h-842.881l87.68 245.76h151.92c-8 13.201-16 26.88-24 40.96h-156.72z" />
<glyph unicode="&#xe909;" glyph-name="fuel_type" d="M190.718 960c-60.88 0-108.8-47.92-108.8-108.8v-751.36h634.882v751.36c0 60.88-47.923 108.8-108.8 108.8h-417.282zM223.358 857.6h352.002c20.48 0 39.040-18.56 39.040-39.040v-208.64c0-20.48-18.56-39.040-39.040-39.040h-352.002c-20.48 0-39.040 18.56-39.040 39.040v208.64c0 20.48 18.56 39.040 39.040 39.040zM772.48 851.84l-29.44-29.44 117.12-116.48v-167.68c0-23.279 9.677-47.441 26.24-64l96.64-96v-155.52c0-45.922-36.002-81.92-81.92-81.92-45.922 0-81.92 35.998-81.92 81.92v102.4c0 54.4-33.762 99.281-81.92 115.84v-44.8c24.559-13.999 40.96-40.158 40.96-71.040v-102.4c0-68.881 53.999-122.88 122.88-122.88 68.877 0 122.88 53.999 122.88 122.88v339.84c0 23.28-9.681 47.44-26.24 64l-225.28 225.28zM61.438 58.88c-11.28 0-20.48-9.118-20.48-20.48v-81.92c0-11.358 9.2-20.48 20.48-20.48h675.842c11.358 0 20.48 9.122 20.48 20.48v81.92c0 11.362-9.122 20.48-20.48 20.48h-675.842z" />
<glyph unicode="&#xe90a;" glyph-name="mobilephone-fill" d="M192 832c0 33.948 13.486 66.505 37.49 90.51s56.562 37.49 90.51 37.49h384c33.946 0 66.505-13.486 90.509-37.49s37.491-56.562 37.491-90.51v-768c0-33.946-13.487-66.505-37.491-90.509s-56.563-37.491-90.509-37.491h-384c-33.948 0-66.505 13.487-90.51 37.491s-37.49 56.563-37.49 90.509v768zM576 128c0 16.973-6.741 33.254-18.743 45.257s-28.284 18.743-45.257 18.743c-16.973 0-33.254-6.741-45.257-18.743s-18.743-28.284-18.743-45.257c0-16.973 6.741-33.254 18.743-45.257s28.284-18.743 45.257-18.743c16.973 0 33.254 6.741 45.257 18.743s18.743 28.284 18.743 45.257z" />
<glyph unicode="&#xe90b;" glyph-name="eye" horiz-adv-x="1075" d="M1015.485 413.865c18.847 0 34.13 15.283 34.13 34.135s-15.283 34.134-34.13 34.134c-18.852 0-34.135-15.282-34.135-34.134s15.283-34.135 34.135-34.135zM59.734 413.865c18.851 0 34.133 15.283 34.133 34.135s-15.282 34.134-34.133 34.134c-18.851 0-34.134-15.282-34.134-34.134s15.282-34.135 34.134-34.135zM537.6 345.6c56.556 0 102.4 45.844 102.4 102.4 0 56.554-45.844 102.4-102.4 102.4-56.554 0-102.4-45.846-102.4-102.4 0-56.556 45.846-102.4 102.4-102.4zM1042.862 468.207c0 0-198.077 321.126-505.277 321.126-307.198 0-505.274-321.126-505.274-321.126l-1.16-38.777c0 0 165.103-322.765 506.435-322.765 341.335 0 506.47 322.765 506.47 322.765l-1.193 38.777zM537.585 209.065c-131.958 0-238.931 106.977-238.931 238.935s106.974 238.933 238.931 238.933c131.963 0 238.935-106.974 238.935-238.933s-106.972-238.935-238.935-238.935z" />
<glyph unicode="&#xe90d;" glyph-name="engine_type" d="M430.080 857.604c-11.28 0-20.48-9.2-20.48-20.48v-81.92c0-11.28 9.2-20.48 20.48-20.48h81.92v-40.96h122.88v40.96h81.92c11.358 0 20.48 9.2 20.48 20.48v81.92c0 11.28-9.122 20.48-20.48 20.48h-286.72zM409.6 673.284c-15.28 0-30.64-6-42.24-17.92l-90.24-104.96h-51.84c-31.6 0-61.44-29.841-61.44-61.44v-245.76c0-32.162 29.28-61.44 61.44-61.44h51.84l91.52-105.6c10.72-10.88 25.68-17.28 40.96-17.28h263.040c15.202 0 30.238 6.4 40.96 17.28l150.4 152.96c10.799 10.961 16.64 25.361 16.64 40.96v34.56h20.48v-81.92c0-11.362 9.118-20.48 20.48-20.48h81.92c11.358 0 20.48 9.118 20.48 20.48v327.68c0 11.36-9.122 20.48-20.48 20.48h-81.92c-11.362 0-20.48-9.12-20.48-20.48v-81.92h-20.48v146.56c0 32.16-25.839 58.24-57.6 58.24h-413.44zM20.48 550.404c-11.28 0-20.48-9.2-20.48-20.48v-327.68c0-11.362 9.2-20.48 20.48-20.48h81.92c11.28 0 20.48 9.118 20.48 20.48v102.4h20.48v122.88h-20.48v102.4c0 11.28-9.2 20.48-20.48 20.48h-81.92zM552.96 550.404h102.4l-102.4-163.84h102.4l-163.84-225.28 61.44 184.32h-102.4l102.4 204.8z" />
<glyph unicode="&#xe911;" glyph-name="year" d="M245.758 960c-22.4 0-40.96-18.56-40.96-40.96v-40.96h-122.88c-23.76 0-40.96-17.2-40.96-40.96v-143.36h942.082v143.36c0 23.76-17.203 40.96-40.96 40.96h-122.88v40.96c0 22.4-18.56 40.96-40.96 40.96h-40.96c-22.4 0-40.96-18.56-40.96-40.96v-40.96h-368.642v40.96c0 22.4-18.56 40.96-40.96 40.96h-40.96zM245.758 919.040h40.96v-122.88h-40.96v122.88zM737.28 919.040h40.96v-122.88h-40.96v122.88zM40.958 652.8v-634.88c0-23.761 17.2-40.96 40.96-40.96h860.162c23.757 0 40.96 17.199 40.96 40.96v634.88h-942.082zM245.758 529.92h102.4v-102.4h-102.4v102.4zM389.118 529.92h102.402v-102.4h-102.402v102.4zM532.48 529.92h102.4v-102.4h-102.4v102.4zM675.84 529.92h102.4v-102.4h-102.4v102.4zM245.758 386.56h102.4v-102.4h-102.4v102.4zM389.118 386.56h102.402v-102.4h-102.402v102.4zM532.48 386.56h102.4v-102.4h-102.4v102.4zM675.84 386.56h102.4v-102.4h-102.4v102.4zM245.758 243.2h102.4v-102.4h-102.4v102.4zM389.118 243.2h102.402v-102.4h-102.402v102.4zM532.48 243.2h102.4v-102.4h-102.4v102.4zM675.84 243.2h102.4v-102.4h-102.4v102.4z" />
<glyph unicode="&#xe912;" glyph-name="has_keys" d="M514.675 878.083c-76.39 0-127.101-46.288-138.16-116.76-0.717-4.424 1.496-7.343 5.92-8.080l46.241-8.080c4.425-0.737 7.343 1.477 8.077 5.88 8.806 44.81 35.277 69.76 76.403 69.76 41.882 0 71.241-26.459 71.241-68.32 0-24.986-8.798-41.874-34.483-77.12l-49.237-67.56c-15.424-21.299-22.042-36.731-22.042-66.12v-30.118c0-4.403 2.935-7.36 7.36-7.36h48.482c4.403 0 7.317 2.957 7.317 7.36v23.519c0 24.986 4.437 35.255 19.119 55.080l49.242 67.56c24.986 34.529 37.402 60.213 37.402 95.48 0 72.724-53.581 124.88-132.881 124.88zM482.355 448.405c-4.425 0-7.36-2.957-7.36-7.36v-63.164c0-4.403 2.914-7.36 7.36-7.36h55.799c4.382 0 7.36 2.957 7.36 7.36v63.164c0 4.403-2.957 7.36-7.36 7.36h-55.799zM724.877 366.084c-7.211 0-26.027-1.348-44.561-13.922-10.014-6.797-21.423-14.353-33.323-22.238-22.814-15.117-48.695-32.235-69.316-47.083-8.090-5.837-13.551-12.523-17.481-19.119h-370.641l-66.68-46.4v-44.518l66.32-52.48h59.16l21.4 21.44 21.44-21.44h59.8l12.84 12.881 12.92-12.881h42.68l12.881 12.881 12.838-12.881h114.999c3.934-6.635 9.451-13.346 17.6-19.162 34.88-24.802 72.367-50.125 102.839-69.478 20.113-12.762 38.976-13.76 44.284-13.76h80.879c41.289 0 74.88 33.98 74.88 75.759v196.642c0 41.779-33.613 75.759-74.923 75.759h-80.836zM778.236 294.404c11.302 0 20.48-9.178 20.48-20.48v-163.84c0-11.307-9.178-20.48-20.48-20.48-11.307 0-20.48 9.173-20.48 20.48v163.84c0 11.302 9.173 20.48 20.48 20.48z" />
<glyph unicode="&#xe913;" glyph-name="mail" d="M0 816.646v-58.88l512-406.402 512 401.282v64h-1024zM0 705.926v-626.562h1024v621.442l-499.2-391.682c-3.682-2.88-8.32-4.48-12.8-4.48s-9.041 1.523-12.8 4.48l-499.2 396.802z" />
<glyph unicode="&#xe914;" glyph-name="odometer" d="M61.44 714.25c-33.792 0-61.44-27.648-61.44-61.44v-450.561c0-33.792 27.648-61.44 61.44-61.44h266.24v573.441h-266.24zM368.64 714.25v-573.441h286.72v573.441h-286.72zM696.32 714.25v-573.441h103.441l101.359 229.602v16.158h-122.88v40.96h143.36c11.264 0 20.48-9.216 20.48-20.48v-40.96c0-2.867-0.614-5.743-1.638-8.201l-95.842-217.079h117.961c33.792 0 61.44 27.648 61.44 61.44v450.561c0 33.792-27.648 61.44-61.44 61.44h-20.48v-143.36c0-33.792-27.648-61.441-61.44-61.441h-40.96c-33.792 0-61.44 27.649-61.44 61.441v143.36h-81.92zM819.2 714.25v-143.36c0-11.264 9.216-20.48 20.48-20.48h40.96c11.264 0 20.48 9.216 20.48 20.48v143.36h-81.92zM143.36 611.85h40.96c33.792 0 61.44-27.648 61.44-61.44v-245.761c0-33.792-27.648-61.44-61.44-61.44h-40.96c-33.792 0-61.44 27.648-61.44 61.44v245.761c0 33.792 27.648 61.44 61.44 61.44zM491.52 611.85h40.96c33.792 0 61.44-27.648 61.44-61.44v-245.761c0-33.792-27.648-61.44-61.44-61.44h-40.96c-33.792 0-61.44 27.648-61.44 61.44v245.761c0 33.792 27.648 61.44 61.44 61.44zM143.36 570.89c-11.264 0-20.48-9.216-20.48-20.48v-245.761c0-11.264 9.216-20.48 20.48-20.48h40.96c11.264 0 20.48 9.216 20.48 20.48v245.761c0 11.264-9.216 20.48-20.48 20.48h-40.96zM491.52 570.89c-2.816 0-5.513-0.56-7.962-1.6-2.445-1.040-4.663-2.544-6.519-4.4s-3.358-4.072-4.399-6.52c-1.041-2.448-1.6-5.144-1.6-7.96v-245.761c0-2.816 0.559-5.513 1.6-7.957 2.082-4.898 6.025-8.841 10.918-10.923 2.449-1.037 5.146-1.6 7.962-1.6h40.96c11.264 0 20.48 9.216 20.48 20.48v245.761c0 11.264-9.216 20.48-20.48 20.48h-40.96z" />
<glyph unicode="&#xe915;" glyph-name="color" d="M419.198 35.2l-362.667 362.667 295.467 294.4-113.067 113.067 66.133 69.333 476.802-476.8-362.669-362.667zM419.198 625.067l-228.267-228.267h456.535l-228.269 228.267zM844.796 64c-25.6 0-47.287 9.075-65.062 27.221-17.779 18.146-26.667 40.363-26.667 66.645 0 19.2 4.804 37.333 14.421 54.4 9.613 17.067 20.45 33.779 32.512 50.133l44.796 57.6 46.938-57.6c11.375-16.354 22.042-33.067 32-50.133 9.954-17.067 14.933-35.2 14.933-54.4 0-26.313-9.246-48.542-27.733-66.688-18.492-18.146-40.533-27.209-66.138-27.179z" />
<glyph unicode="&#xe91a;" glyph-name="damage" d="M331.519 753.271c-50.88 0-90.64-23.2-112.64-65.92-6.88-13.28-32.8-79.28-58.24-145.92h-0.64c-0.64-1.6-1.76-3.2-2.56-5.12-2.72-6.242-6.56-15.040-8.32-24.96-21.76-57.28-40.96-109.12-45.44-120.96l-1.28-3.84v-245.76c0-33.839 27.6-61.44 61.44-61.44h81.92c33.84 0 61.44 27.601 61.44 61.44v16.64l409.601-10.24v-6.4c0-33.839 27.601-61.44 61.44-61.44h81.92c33.839 0 61.44 27.601 61.44 61.44 0 0 0 54.639 0 61.44 0 83.921-26.799 111.198-47.36 119.68l-3.84 109.44-67.2 63.36c15.838 27.601 42.078 84.8 8.96 119.68-31.761 33.44-104.081 39.2-130.56 40.32-22.959 22-103.599 79.28-335.361 97.92-4.96 0.4-10.080 0.64-14.72 0.64zM327.679 712.311c4.88 0.16 10.080-0.24 15.36-0.64 254.482-20.48 312.722-88.64 312.961-88.96l5.76-8.32h10.24c32.478-0.24 91.038-8.080 110.080-28.16 13.999-14.72-4.642-58.321-21.76-83.2l-10.24-14.72 78.72-73.6c-1.6-9.92-5.679-19.84-14.080-24.32-8.64-4.719-35.439-10.722-97.92 32.64-52.322 103.040-207.36 82.159-332.161 65.28-46.16-6.242-89.68-11.921-119.68-10.24-62.4 3.52-73.28 16.559-74.88 19.2-0.64 1.041-0.64 2.398-0.64 3.84 30.56 80.16 59.6 154.799 65.92 167.040 14.48 28.16 38.24 43.12 72.32 44.16zM104.319 550.391c-61.92 0-83.84-38.080-83.84-73.6 0-17.28 7.76-45.12 53.76-48.64 8.48 22.481 21.6 57.28 35.84 94.72 2.56 11.84 6.24 21.279 8.96 27.52h-14.72zM868.48 522.231l-8.32-24.32 50.56-48 0.64-17.28 1.92-55.68c11.678-4.16 21.76-6.4 30.72-6.4 21.12 0 36.8 11.119 44.16 31.36 4.48 12.318 8.401 31.279 0.64 51.2-8.081 20.881-26.24 36.399-54.4 46.72l-65.92 22.4zM225.279 386.551h81.92c33.92 0 61.44-27.52 61.44-61.44s-27.52-61.44-61.44-61.44c-34.32 0-44.48 8.721-80 28.8-23.76 13.44-42.88 26.321-42.88 53.12 0 22.639 18.32 40.96 40.96 40.96zM709.12 334.711c7.599 0.158 15.040-1.199 22.4-3.84 0 0 52.48-27.52 73.6-21.12l-0.64-23.68 23.68-22.4c-16.401-28.399-33.762-35.362-58.88-39.68l-7.040 20.48 45.44 15.36-35.84 6.4 10.24 24.32-32.64-19.84c-0.239-0.162-0.482 0.478-0.64 0.64l-35.84 40.96 10.24-45.44c0.081-0.401-0.32-1.28-0.64-1.28h-51.84l59.52-24.32c0.158-0.081 0.64 0.158 0.64 0l1.92-23.040c-14.161-1.519-25.762-0.64-43.52 5.76-30.562 10.961-45.679 45.12-33.28 75.52 8.879 21.76 30.4 34.799 53.12 35.2z" />
<glyph unicode="&#xe91b;" glyph-name="transmission_type" d="M512 898.563c-14.17 0-27.831-2.020-40.96-5.44v-117.44c0-22.589 18.372-40.96 40.96-40.96 22.592 0 40.96 18.371 40.96 40.96v117.44c-13.129 3.42-26.786 5.44-40.96 5.44zM430.080 876.163c-48.884-28.672-81.919-82.048-81.919-143.16 0-20.664 3.767-40.85 11.16-60.040 0.205-0.983 61.6-163.518 61.6-163.518h182.159c0 0 61.376 162.516 61.559 163.478 7.437 19.21 11.2 39.435 11.2 60.12 0 61.112-33.033 114.428-81.92 143.12v-100.48c0-45.179-36.74-81.92-81.92-81.92s-81.92 36.741-81.92 81.92v100.48zM450.56 468.484v-163.84h122.88v163.84h-122.88zM450.603 263.684c-64.82 0-119.668-43.255-137.321-102.4h397.481c-17.677 59.145-72.482 102.4-137.28 102.4h-122.88zM281.121 120.324c-33.485-21.956-55.84-59.456-55.84-102.4 0-11.307 9.155-20.48 20.48-20.48h532.479c11.328 0 20.48 9.173 20.48 20.48 0 42.944-22.353 80.444-55.838 102.4h-461.761z" />
<glyph unicode="&#xe91c;" glyph-name="body_style" d="M311.68 734.729c-35.52 0-68.16-17.84-87.040-48l-72.96-117.12-64-9.6c-50.080-7.2-87.68-50.48-87.68-101.121v-133.76c0-33.839 27.6-61.44 61.44-61.44h42.88c9.84-58.001 60.16-102.4 120.96-102.4s111.12 44.399 120.96 102.4h331.52c9.839-58.001 60.16-102.4 120.96-102.4s111.202 44.399 120.96 102.4h42.88c33.839 0 61.44 27.601 61.44 61.44v115.2c0 50.24-36.16 92.241-85.76 100.48l-168.96 28.16-93.44 124.8c-19.2 25.68-49.839 40.96-81.92 40.96h-282.24zM311.68 693.769h118.4v-122.88h-229.12l58.88 94.080c11.28 18.080 30.56 28.8 51.84 28.8zM471.040 693.769h122.88c19.2 0 37.76-8.96 49.28-24.32l73.6-98.56h-245.76v122.88zM225.28 366.089c45.2 0 81.92-36.719 81.92-81.92s-36.72-81.92-81.92-81.92c-45.2 0-81.92 36.719-81.92 81.92s36.72 81.92 81.92 81.92zM798.72 366.089c45.201 0 81.92-36.719 81.92-81.92s-36.719-81.92-81.92-81.92c-45.201 0-81.92 36.719-81.92 81.92s36.719 81.92 81.92 81.92z" />
<glyph unicode="&#xe91d;" glyph-name="arrow-prev" horiz-adv-x="569" d="M510.662 911.013c35.783-30.671 39.927-84.541 9.257-120.324l-293.733-342.691 293.732-342.685c30.671-35.783 26.527-89.653-9.255-120.325s-89.653-26.527-120.325 9.256l-309.599 361.196c-45.652 53.262-45.653 131.854-0.001 185.114l309.6 361.203c30.67 35.783 84.541 39.927 120.323 9.256z" />
<glyph unicode="&#xe91f;" glyph-name="link" d="M757.76 878c-47.202 0.003-94.417-17.987-130.359-53.92l-102.4-102.4c-51.038-51.037-65.626-124.735-44.16-188.961l73.557 73.561c3.072 21.033 12.361 41.321 28.523 57.48l102.4 102.4c19.968 19.948 46.225 29.96 72.439 29.96s52.45-9.992 72.401-29.96c39.915-39.936 39.915-104.884 0-144.8l-102.4-102.401c-16.162-16.158-36.429-25.425-57.481-28.518l-73.6-73.6c19.004-6.349 38.793-9.719 58.637-9.719 47.206 0 94.421 17.975 130.364 53.918l102.4 102.401c71.885 71.864 71.863 188.775 0 260.64-35.942 35.922-83.119 53.917-130.321 53.92zM634.078 612.24c-10.641-0.317-20.74-4.765-28.16-12.4l-245.759-245.762c-3.931-3.772-7.070-8.294-9.232-13.295-2.162-5.005-3.305-10.385-3.36-15.834-0.055-5.453 0.977-10.859 3.037-15.902 2.060-5.047 5.105-9.63 8.959-13.483s8.437-6.899 13.483-8.96c5.045-2.061 10.451-3.093 15.9-3.038s10.833 1.199 15.835 3.362c5.002 2.163 9.523 5.299 13.297 9.229l245.759 245.762c5.922 5.753 9.963 13.161 11.601 21.251 1.634 8.090 0.789 16.486-2.428 24.088s-8.657 14.054-15.603 18.511c-6.946 4.458-15.078 6.713-23.33 6.47zM377.839 488.482c-50.218 2.551-101.228-15.206-139.52-53.483l-102.4-102.4c-71.864-71.863-71.864-188.817 0-260.681 35.942-35.921 83.134-53.879 130.32-53.879s94.377 17.98 130.32 53.922l102.402 102.4c51.034 51.034 65.66 124.732 44.198 188.958l-73.6-73.6c-3.072-21.030-12.361-41.323-28.518-57.481l-102.402-102.4c-39.916-39.936-104.884-39.936-144.8 0s-39.916 104.887 0 144.802l102.4 102.4c16.159 16.158 36.447 25.468 57.48 28.561l73.562 73.557c-16.058 5.367-32.702 8.469-49.442 9.323z" />
<glyph unicode="&#xe920;" glyph-name="mobilephone" d="M799.356-2.551c-0.32 0-0.64 0-0.96 0-153.92 5.039-334.238 154.24-458.478 278.558-124.4 124.322-273.6 304.721-278.4 457.92-1.76 53.76 130.16 149.36 131.52 150.32 34.24 23.84 72.24 15.36 87.84-6.24 10.56-14.64 110.56-166.16 121.44-183.36 11.28-17.84 9.6-44.4-4.48-71.040-7.76-14.8-33.52-60.080-45.6-81.2 13.040-18.558 47.52-64.079 118.721-135.281 71.279-71.198 116.719-105.758 135.36-118.797 21.12 12.079 66.398 37.837 81.199 45.598 26.24 13.922 52.638 15.68 70.639 4.642 18.402-11.281 169.519-111.761 183.441-121.442 11.678-8.239 19.2-22.319 20.719-38.72 1.442-16.559-3.678-34.078-14.319-49.361-0.879-1.28-95.36-131.597-148.642-131.597z" />
<glyph unicode="&#xe921;" glyph-name="price-label" d="M982.959 542.641l0.081 304.72c0 39.52-32.162 71.68-71.68 71.68h-317.521c-26.56 0-51.84-1.52-70.080-19.76l-465.44-465.361c-11.2-11.2-17.36-26.078-17.36-41.92 0-15.757 6.16-30.639 17.36-41.839l355.84-355.84c11.12-11.2 25.999-17.361 41.841-17.361 15.757 0 30.72 6.161 41.839 17.361l465.438 465.519c20.002 19.921 19.84 48.563 19.763 76.241l-0.081 6.56zM653.278 417.28l-28.638 28.642c18.398 26.641 22.558 59.439-8.162 90.159-43.038 42.96-77.841 18.4-90.159 6.16-28.642-28.719-10.24-63.522 14.4-102.4 28.638-47.121 53.201-100.399 6.080-147.52-55.279-57.361-122.88-22.481-149.44-4.079l-26.64-26.641-28.72 28.719 28.72 28.642c-20.48 28.638-49.2 85.999 8.16 153.6l28.64-28.642c-18.4-18.398-40.96-65.519 4.16-110.558 45.039-45.12 75.759-34.88 100.322-10.24 69.598 69.598-112.642 157.679-20.48 249.839 49.118 49.12 110.558 26.64 137.199 6.16l32.798 32.72 28.642-28.64-32.721-32.8c34.799-49.12 18.402-92.162-4.16-133.122zM798.72 673.282c-33.92 0-61.44 27.52-61.44 61.44s27.52 61.44 61.44 61.44c33.92 0 61.44-27.52 61.44-61.44s-27.52-61.44-61.44-61.44z" />
<glyph unicode="&#xe922;" glyph-name="loader" horiz-adv-x="1067" d="M964.42 474.406c-0.521 11.11-5.427 21.555-13.649 29.043-8.222 7.492-19.081 11.405-30.187 10.889-11.11-0.516-21.555-5.427-29.043-13.645-7.492-8.222-11.409-19.081-10.889-30.191 3.524-74.965-18.236-148.945-61.798-210.061s-106.394-105.826-178.411-126.946c-72.017-21.124-149.043-17.438-218.715 10.466s-127.946 78.409-165.472 143.403c-37.526 64.998-52.125 140.715-41.455 215.006 10.67 74.289 45.991 142.839 100.293 194.646s124.436 83.867 199.146 91.034c74.705 7.167 149.658-10.975 212.817-51.513 4.634-2.972 9.809-5.002 15.232-5.974 5.419-0.972 10.978-0.867 16.354 0.309 5.38 1.176 10.475 3.4 14.993 6.545 4.523 3.145 8.375 7.149 11.349 11.785s5.001 9.81 5.973 15.23c0.973 5.42 0.866 10.978-0.307 16.357-1.178 5.379-3.401 10.474-6.545 14.993s-7.151 8.375-11.785 11.348c-78.959 50.646-172.642 73.297-266.014 64.32-93.374-8.977-181.024-49.064-248.885-113.825s-111.998-150.444-125.327-243.294c-13.33-92.855 4.921-187.494 51.823-268.727 46.902-81.237 119.736-144.363 206.813-179.247 87.075-34.88 183.348-39.497 273.366-13.111 90.014 26.389 168.555 82.253 223.014 158.63 54.464 76.373 81.69 168.832 77.308 262.532z" />
<glyph unicode="&#xe924;" glyph-name="arrow-next" horiz-adv-x="569" d="M58.623 916.155c-35.964-30.458-40.428-84.303-9.97-120.267l294.628-347.89-294.628-347.885c-30.458-35.964-25.995-89.809 9.969-120.268s89.809-25.995 120.267 9.969l310.196 366.268c44.923 53.043 44.923 130.786 0.001 183.83l-310.196 366.273c-30.458 35.964-84.304 40.428-120.268 9.97z" />
<glyph unicode="&#xe936;" glyph-name="burger" d="M51.2 806.401c-28.277 0-51.2-22.923-51.2-51.2s22.923-51.2 51.2-51.2h921.6c28.275 0 51.2 22.923 51.2 51.2s-22.925 51.2-51.2 51.2h-921.6zM51.2 499.2c-28.277 0-51.2-22.921-51.2-51.2 0-28.275 22.923-51.2 51.2-51.2h921.6c28.275 0 51.2 22.925 51.2 51.2 0 28.279-22.925 51.2-51.2 51.2h-921.6zM51.2 192c-28.277 0-51.2-22.921-51.2-51.2 0-28.275 22.923-51.2 51.2-51.2h921.6c28.275 0 51.2 22.925 51.2 51.2 0 28.279-22.925 51.2-51.2 51.2h-921.6z" />
<glyph unicode="&#xe939;" glyph-name="highlight" d="M929.707 558.934l-112.64 310.613c-1.69 4.873-4.86 9.097-9.067 12.080s-9.242 4.578-14.4 4.56h-549.973c-5.143-0.044-10.149-1.663-14.344-4.638s-7.379-7.164-9.123-12.002l-102.827-283.733-9.387-26.88-5.973-16.64 15.787-5.547 31.573-11.521 11.947 33.708 100.267 276.907h514.133l100.267-276.907 12.373-33.708 47.36 17.068-5.973 16.64zM85.333 558.932c-6.077 0.044-11.958-2.149-16.522-6.162s-7.491-9.565-8.225-15.598c-0.242-1.125-0.242-2.289 0-3.413v-509.865c-0.057-1.83 0.254-3.652 0.914-5.359s1.657-3.26 2.93-4.574c1.274-1.314 2.799-2.359 4.483-3.072s3.496-1.079 5.325-1.075h93.44c3.734 0 7.316 1.481 9.956 4.122s4.124 6.221 4.124 9.958v32.427h674.133v-32.427c-0.055-1.83 0.252-3.652 0.913-5.359s1.66-3.26 2.931-4.574c1.276-1.314 2.799-2.359 4.484-3.072s3.494-1.079 5.325-1.075h92.16c3.733 0 7.317 1.481 9.954 4.122 2.641 2.641 4.126 6.221 4.126 9.958v509.44c0.055 3.34-0.555 6.659-1.792 9.763-1.242 3.104-3.085 5.929-5.427 8.312-2.347 2.383-5.137 4.276-8.222 5.567-3.081 1.292-6.391 1.957-9.732 1.956h-865.28zM190.293 414.293h94.293c4.948 0 8.96-4.015 8.96-8.96v-32.427c0-4.949-4.012-8.96-8.96-8.96h-94.293c-4.948 0-8.96 4.011-8.96 8.96v32.427c0 4.945 4.012 8.96 8.96 8.96zM847.36 414.293c4.949 0 8.96-4.015 8.96-8.96v-32.427c0-4.949-4.011-8.96-8.96-8.96h-94.293c-4.949 0-8.96 4.011-8.96 8.96v32.427c0 4.945 4.011 8.96 8.96 8.96h94.293zM692.053 192h-323.84c-3.651-0.337-7.332 0.141-10.776 1.399s-6.565 3.268-9.137 5.884c-2.572 2.611-4.532 5.764-5.737 9.225-1.205 3.465-1.625 7.155-1.23 10.799v89.173c-0.058 1.045 0.097 2.086 0.457 3.072 0.36 0.981 0.916 1.877 1.635 2.637s1.585 1.361 2.546 1.775c0.961 0.414 1.996 0.623 3.041 0.623h34.987c2.15 0 4.212-0.853 5.732-2.377 1.52-1.519 2.374-3.58 2.374-5.73v-64h273.494v64c-0.064 1.079 0.107 2.163 0.491 3.174s0.981 1.929 1.745 2.697c0.768 0.764 1.685 1.361 2.697 1.745s2.095 0.55 3.174 0.491h34.56c1.045 0 2.078-0.209 3.042-0.623 0.96-0.414 1.826-1.015 2.543-1.775 0.721-0.759 1.276-1.655 1.638-2.637 0.358-0.986 0.512-2.027 0.457-3.072v-89.173c0.354-3.388 0.004-6.814-1.028-10.057-1.028-3.247-2.718-6.246-4.962-8.811s-4.992-4.634-8.073-6.089c-3.081-1.451-6.426-2.253-9.83-2.351zM928 508.587l89.173 63.148c1.438 1.153 2.509 2.704 3.072 4.46s0.597 3.639 0.094 5.415c-0.499 1.775-1.51 3.363-2.91 4.566s-3.119 1.968-4.949 2.199l-125.44-3.413 40.96-76.375zM96 508.587l-89.173 63.148c-1.44 1.153-2.508 2.704-3.071 4.46s-0.597 3.639-0.096 5.415c0.501 1.775 1.513 3.363 2.911 4.566s3.119 1.968 4.949 2.199l125.44-3.413-40.96-76.375z" />
<glyph unicode="&#xe93a;" glyph-name="clock" d="M512 919.042c-259.748 0-471.040-211.292-471.040-471.042 0-259.746 211.292-471.040 471.040-471.040 259.746 0 471.040 211.294 471.040 471.040 0 259.75-211.294 471.042-471.040 471.042zM512 386.56c-9.463 0-18.33 2.317-26.338 6.144l-123.023-123.021c-3.994-3.994-9.236-6.003-14.479-6.003s-10.486 2.010-14.479 6.003c-8.008 8.009-8.008 20.949 0 28.958l123.024 123.025c-3.831 8.004-6.144 16.875-6.144 26.334 0 26.709 17.143 49.216 40.96 57.673v290.489c0 11.325 9.156 20.48 20.48 20.48s20.48-9.155 20.48-20.48v-290.489c23.817-8.457 40.96-30.963 40.96-57.673 0-33.933-27.503-61.44-61.44-61.44z" />
<glyph unicode="&#xe93b;" glyph-name="eye-hide" d="M120.959 858.24c-0.88-0.16-1.76-0.4-2.56-0.64-7.68-1.36-13.84-6.96-16-14.4-2.16-7.52 0.080-15.52 5.76-20.8l778.241-778.24c8.158-8.158 21.278-8.158 29.44 0 8.158 8.158 8.158 21.282 0 29.44l-173.44 173.44c134.639 72.64 229.679 180.719 235.52 187.52 6.558 7.68 6.558 19.2 0 26.88-8.883 10.321-220.002 252.8-465.92 252.8-67.763 0-132.401-18.56-191.361-45.44l-183.040 183.040c-4.24 4.56-10.4 6.88-16.64 6.4zM512 673.28c8 0 15.757-0.72 23.68-1.28 113.037-12 201.6-107.84 201.6-224 0-54.639-19.362-104.96-51.84-144l-103.040 103.040c7.117 12.079 11.52 25.92 11.52 40.96 0 45.278-36.642 81.92-81.92 81.92-15.040 0-28.881-4.399-40.96-11.52l-103.041 103.040c39.040 32.48 89.358 51.84 144.001 51.84zM245.759 629.12c-115.76-71.040-194.32-161.442-199.68-167.68-6.56-7.68-6.56-19.2 0-26.88 8.88-10.321 220-252.8 465.921-252.8 8.239 0 16.239 0.559 24.32 1.28 44.237 2.88 87.437 12.561 128 27.52l-41.6 41.6c-32.802-18.641-70.323-29.44-110.72-29.44-8 0-15.761 0.721-23.68 1.28-113.041 11.998-201.601 107.84-201.601 224 0 40.401 10.8 77.918 29.44 110.72l-70.4 70.4zM430.72 444.8c1.677-42.56 35.439-76.399 78.080-78.080l-78.080 78.080z" />
<glyph unicode="&#xe93d;" glyph-name="filter-solid" d="M7.8 850.2c13.2 28 41.2 45.8 72.2 45.8h864c31.002 0 58.999-17.8 72.201-45.8s9.199-61-10.402-85l-365.798-447v-254.199c0-24.201-13.602-46.4-35.401-57.199-21.798-10.803-47.599-8.602-66.999 5.999l-128 96c-16.2 11.998-25.6 31.002-25.6 51.2v158.199l-366 447.2c-19.4 23.8-23.6 57-10.2 84.8z" />
<glyph unicode="&#xe93e;" glyph-name="vin" d="M150.187 216.32l-147.2 450.985c-1.026 2.974-1.322 6.151-0.863 9.263s1.659 6.069 3.499 8.62c1.84 2.551 4.267 4.623 7.075 6.040s5.917 2.139 9.062 2.103h26.453c4.232 0.041 8.368-1.257 11.817-3.709s6.033-5.933 7.383-9.944l72.107-227.838c20.907-66.56 39.253-128 52.053-183.893 13.653 57.173 34.133 119.040 55.893 183.040l80.213 229.118c1.286 3.933 3.808 7.346 7.191 9.73s7.446 3.61 11.582 3.497h25.6c3.161-0.009 6.273-0.781 9.071-2.25s5.2-3.594 7.002-6.191c1.801-2.597 2.949-5.591 3.345-8.727s0.029-6.321-1.071-9.285l-161.28-450.985c-1.286-3.934-3.808-7.347-7.191-9.732-3.383-2.381-7.446-3.61-11.582-3.494h-39.68c-4.459-0.405-8.921 0.734-12.646 3.217s-6.489 6.165-7.834 10.436zM554.667 673.707v-451.413c-0.111-5.244-2.274-10.236-6.025-13.905-3.746-3.669-8.785-5.722-14.029-5.722h-23.893c-5.171 0.111-10.099 2.21-13.76 5.871-3.657 3.657-5.76 8.585-5.867 13.756v451.413c0.107 5.171 2.21 10.1 5.867 13.757 3.661 3.657 8.589 5.76 13.76 5.869h23.893c5.244 0.001 10.283-2.053 14.029-5.722 3.75-3.669 5.914-8.66 6.025-13.905zM653.653 222.298v451.411c0.111 5.171 2.21 10.1 5.871 13.758 3.657 3.657 8.585 5.76 13.756 5.869h38.4c3.354-0.015 6.656-0.836 9.63-2.396 2.97-1.559 5.521-3.811 7.437-6.564l151.467-239.358c32.819-51.179 62.182-104.486 87.893-159.573-5.973 65.707-7.253 125.44-7.253 201.813v186.451c-0.004 2.651 0.533 5.275 1.57 7.713 1.041 2.439 2.564 4.642 4.476 6.476 1.916 1.834 4.181 3.261 6.66 4.196 2.483 0.934 5.124 1.357 7.774 1.242h20.053c5.244 0.001 10.283-2.053 14.033-5.722 3.746-3.669 5.909-8.661 6.020-13.905v-451.411c-0.111-5.248-2.274-10.24-6.020-13.905-3.75-3.669-8.789-5.726-14.033-5.722h-33.28c-3.358-0.068-6.677 0.764-9.604 2.415s-5.355 4.058-7.036 6.972l-149.333 239.787c-33.852 52.715-64.486 107.426-91.733 163.838 3.413-61.867 5.12-120.745 5.12-202.665v-189.867c-0.111-5.248-2.274-10.236-6.020-13.905-3.75-3.669-8.789-5.726-14.033-5.722h-20.053c-2.667-0.235-5.359 0.068-7.906 0.892s-4.907 2.15-6.938 3.9c-2.027 1.749-3.682 3.887-4.873 6.289-1.186 2.402-1.882 5.018-2.044 7.693z" />
<glyph unicode="&#xe93f;" glyph-name="drive_type" d="M938.667 960h-104.96c-16.358 0.020-32.256-5.428-45.167-15.477s-22.093-24.125-26.086-39.989v0c-1.715-5.672-2.577-11.567-2.56-17.493v-19.2c-12.373-96.853-72.96-74.24-72.96-74.24v-51.2c0 0 60.587 23.040 72.96-73.387v-27.307c0-9.673 1.911-19.251 5.628-28.183 3.712-8.932 9.156-17.041 16.017-23.861s15.002-12.217 23.953-15.88c8.956-3.663 18.543-5.519 28.215-5.463h104.96c19.465 0 38.131 7.732 51.891 21.495 13.764 13.763 21.495 32.429 21.495 51.892v244.907c0 19.463-7.731 38.129-21.495 51.892-13.76 13.763-32.427 21.494-51.891 21.494v0zM264.107 867.413v19.2c0.019 5.926-0.844 11.822-2.56 17.493v0c-3.913 15.944-13.060 30.115-25.977 40.248s-28.859 15.641-45.276 15.645h-104.96c-19.166-0.446-37.397-8.374-50.793-22.089s-20.893-32.127-20.888-51.298v-244.907c-0.005-19.171 7.492-37.583 20.888-51.298s31.626-21.643 50.793-22.089h104.96c9.673-0.056 19.262 1.801 28.215 5.463s17.094 9.059 23.953 15.88c6.86 6.82 12.304 14.929 16.018 23.861s5.627 18.509 5.627 28.183v27.307c12.373 96.427 72.96 73.387 72.96 73.387v51.2c0 0-60.587-22.613-72.96 73.813zM426.667 704.001h170.667v-554.668h-170.667v554.668zM606.72 854.188h-189.867c-48.306 0-87.467-39.16-87.467-87.467v-5.12c0-48.306 39.16-87.467 87.467-87.467h189.867c48.307 0 87.467 39.16 87.467 87.467v5.12c0 48.306-39.159 87.467-87.467 87.467zM416.853 221.867h190.293c22.63 0 44.335-8.99 60.339-24.994 16.004-16 24.994-37.705 24.994-60.339v-5.547c0-22.63-8.99-44.335-24.994-60.339s-37.709-24.994-60.339-24.994h-190.293c-22.632 0-44.337 8.99-60.34 24.994s-24.994 37.709-24.994 60.339v5.547c0 22.635 8.991 44.339 24.994 60.339 16.003 16.004 37.708 24.994 60.34 24.994zM938.667 327.68h-104.96c-9.673 0.055-19.26-1.801-28.215-5.461-8.951-3.665-17.092-9.062-23.953-15.881-6.861-6.822-12.305-14.929-16.017-23.859-3.716-8.934-5.628-18.513-5.628-28.186v-27.307c-12.373-96.427-72.96-73.387-72.96-73.387v-51.2c0 0 60.587 22.613 72.96-73.813v-19.2c-0.017-5.926 0.845-11.819 2.56-17.493 3.913-15.945 13.060-30.114 25.975-40.247 12.919-10.133 28.86-15.642 45.278-15.646h104.96c19.465 0 38.131 7.731 51.891 21.495 13.764 13.764 21.495 32.431 21.495 51.891v244.907c0 19.465-7.731 38.131-21.495 51.891-13.76 13.764-32.427 21.495-51.891 21.495v0zM264.107 226.987v27.307c0 9.673-1.912 19.251-5.627 28.186-3.715 8.93-9.158 17.037-16.018 23.859-6.86 6.818-15 12.215-23.953 15.881-8.953 3.661-18.542 5.517-28.215 5.461h-104.96c-19.166-0.444-37.397-8.371-50.793-22.089-13.396-13.713-20.893-32.128-20.888-51.298v-244.907c-0.005-19.17 7.492-37.581 20.888-51.298 13.396-13.713 31.626-21.641 50.793-22.089h104.96c16.36-0.017 32.257 5.427 45.167 15.479 12.91 10.048 22.092 24.124 26.086 39.987v0c1.716 5.675 2.579 11.567 2.56 17.493v19.2c12.373 96.853 72.96 74.24 72.96 74.24v51.2c0 0-60.587-23.040-72.96 73.387z" />
<glyph unicode="&#xe940;" glyph-name="close-large" d="M216.634 801.609c-16.082 16.082-42.157 16.082-58.24 0s-16.082-42.157 0-58.24l295.362-295.361-297.63-298.21c-15.895-15.927-15.882-41.719 0.028-57.63s41.702-15.923 57.628-0.026l298.214 297.626 297.28-297.28c16.081-16.081 42.155-16.081 58.24 0 16.081 16.085 16.081 42.159 0 58.24l-297.28 297.28 295.36 295.361c16.081 16.082 16.081 42.157 0 58.24-16.085 16.083-42.159 16.083-58.24 0l-295.36-295.361-295.362 295.361z" />
<glyph unicode="&#xe941;" glyph-name="print" horiz-adv-x="1067" d="M832 618.667h-597.333c-70.827 0-128-57.173-128-128v-256h170.667v-170.667h512v170.667h170.667v256c0 70.827-57.173 128-128 128zM704 149.333h-341.333v213.333h341.333v-213.333zM832 448c-23.467 0-42.667 19.2-42.667 42.667s19.2 42.667 42.667 42.667c23.467 0 42.667-19.2 42.667-42.667s-19.2-42.667-42.667-42.667zM789.333 832h-512v-170.667h512v170.667z" />
<glyph unicode="&#xe942;" glyph-name="download-pdf" d="M768 192v-128h-512v128h-64v-128c0-16.973 6.743-33.254 18.745-45.257s28.281-18.743 45.255-18.743h512c16.973 0 33.254 6.741 45.257 18.743s18.743 28.284 18.743 45.257v128h-64zM672 288l-45.248 45.248-82.752-82.752v261.504h-64v-261.504l-82.752 82.752-45.248-45.248 160-160 160 160zM896 832v64h-192v-320h64v128h96v64h-96v64h128zM544 576h-128v320h128c25.455-0.026 49.856-10.148 67.853-28.146 18.001-17.998 28.122-42.401 28.147-67.854v-128c-0.026-25.453-10.146-49.856-28.147-67.854-17.997-17.998-42.398-28.12-67.853-28.146zM480 640h64c8.486 0.009 16.619 3.383 22.618 9.382s9.374 14.134 9.382 22.618v128c-0.009 8.484-3.383 16.619-9.382 22.618s-14.131 9.373-22.618 9.382h-64v-192zM288 896h-160v-320h64v96h96c16.966 0.026 33.23 6.776 45.227 18.773s18.748 28.261 18.773 45.227v96c-0.017 16.969-6.765 33.237-18.764 45.236s-28.268 18.747-45.236 18.764zM192 736v96h96l0.032-96h-96.032z" />
<glyph unicode="&#xe94c;" glyph-name="home" d="M256.002 63.995c-23.466 0-43.549 8.351-60.246 25.047-16.725 16.727-25.088 36.823-25.088 60.288v383.999c0 13.511 3.030 26.311 9.088 38.399 6.030 12.089 14.379 22.045 25.046 29.867l256 192c7.822 5.689 16 9.955 24.534 12.8s17.422 4.266 26.664 4.266c9.247 0 18.135-1.422 26.67-4.266 8.53-2.845 16.712-7.111 24.53-12.8l256-192c10.67-7.822 19.031-17.778 25.088-29.867 6.031-12.089 9.047-24.889 9.047-38.399v-383.999c0-23.465-8.346-43.561-25.047-60.288-16.722-16.696-36.818-25.047-60.288-25.047h-170.665v298.67h-170.666v-298.67h-170.666z" />
<glyph unicode="&#xe94d;" glyph-name="round-arrow" d="M894.2 787.6c-93.6 105.6-229.8 172.4-382.2 172.4-282.8 0-512-229.2-512-512h128c0 212.2 171.8 384 384 384 117 0 220.8-53 291-135.6l-120.4-120.4h341.4v341.4l-129.8-129.8zM512 64c-117 0-220.8 53-291 135.6l120.4 120.4h-341.4v-341.4l129.8 129.8c93.6-105.6 230-172.4 382.2-172.4 282.8 0 512 229.2 512 512h-128c0-212.2-171.8-384-384-384z" />
</font>
</defs>
</svg>
